<?xml version="1.0" standalone="no"?>
<!DOCTYPE svg PUBLIC "-//W3C//DTD SVG 1.1//EN" "http://www.w3.org/Graphics/SVG/1.1/DTD/svg11.dtd" >
<svg xmlns="http://www.w3.org/2000/svg">
<metadata>
<json>
<![CDATA[
{
	"fontFamily": "Havin-Webfont",
	"majorVersion": 1,
	"minorVersion": 2,
	"copyright": "All Right Reserved ©2021 Havin Website",
	"designer": "Ali Yarahmadi",
	"license": "All Right Reserved ©2021 Havin Website",
	"version": "Version 1.2",
	"fontId": "Havin-Webfont",
	"psName": "Havin-Webfont",
	"subFamily": "Regular",
	"fullName": "Havin-Webfont",
	"description": "Font generated by IcoMoon."
}
]]>
</json>
</metadata>
<defs>
<font id="Havin-Webfont" horiz-adv-x="1024">
<font-face units-per-em="1024" ascent="960" descent="-64" />
<missing-glyph horiz-adv-x="1024" />
<glyph unicode="&#x20;" horiz-adv-x="512" d="" />
<glyph unicode="&#xe900;" glyph-name="check" data-tags="check" d="M323.84 71.68v0c-22.513 0.497-42.702 10.049-57.145 25.143l-0.029 0.030-242.347 256c-10.689 13.654-17.141 31.073-17.141 49.999 0 45.008 36.486 81.493 81.493 81.493 19.886 0 38.109-7.123 52.255-18.957l-0.128 0.104 186.027-196.693 559.36 533.333c14.62 13.953 34.467 22.54 56.32 22.54 45.085 0 81.633-36.548 81.633-81.633 0-23.232-9.705-44.197-25.281-59.063l-0.032-0.030-618.667-590.080c-14.433-13.738-34.007-22.19-55.556-22.19-0.269 0-0.537 0.001-0.805 0.004h0.041z" />
<glyph unicode="&#xe901;" glyph-name="chevron-down" data-tags="chevron_down" d="M0 674.133c-0.005-0.3-0.008-0.654-0.008-1.009 0-18.449 7.506-35.145 19.631-47.201l0.003-0.003 438.613-448.853c13.401-14.563 32.495-23.71 53.727-23.893h0.033c0.131-0.001 0.286-0.001 0.441-0.001 20.9 0 39.647 9.219 52.396 23.813l0.070 0.082 439.467 448.853c12.128 12.059 19.634 28.755 19.634 47.204 0 0.355-0.003 0.709-0.008 1.063l0.001-0.053c0.003 0.254 0.005 0.554 0.005 0.855 0 37.467-30.373 67.84-67.84 67.84-0.152 0-0.304 0-0.455-0.001h0.023c-19.332-0.404-36.741-8.31-49.501-20.914l0.007 0.007-394.24-404.48-394.24 404.48c-12.636 12.779-30.119 20.744-49.463 20.906h-0.031c-0.128 0.001-0.28 0.001-0.432 0.001-37.467 0-67.84-30.373-67.84-67.84 0-0.301 0.002-0.601 0.006-0.9v0.045z" />
<glyph unicode="&#xe902;" glyph-name="chevron-left" data-tags="chevron_left" d="M738.133 960c-0.3 0.005-0.654 0.008-1.009 0.008-18.449 0-35.145-7.506-47.201-19.631l-0.003-0.003-448.853-438.613c-14.563-13.401-23.71-32.495-23.893-53.727v-0.033c-0.001-0.131-0.001-0.286-0.001-0.441 0-20.9 9.219-39.647 23.813-52.396l0.082-0.070 448.853-439.467c12.059-12.128 28.755-19.634 47.204-19.634 0.355 0 0.709 0.003 1.063 0.008l-0.053-0.001c0.254-0.003 0.554-0.005 0.855-0.005 37.467 0 67.84 30.373 67.84 67.84 0 0.152 0 0.304-0.001 0.455v-0.023c-0.404 19.332-8.31 36.741-20.914 49.501l0.007-0.007-404.48 394.24 404.48 393.813c12.779 12.636 20.744 30.119 20.906 49.463v0.031c0.003 0.255 0.005 0.557 0.005 0.859 0 37.467-30.373 67.84-67.84 67.84-0.302 0-0.603-0.002-0.904-0.006h0.046z" />
<glyph unicode="&#xe903;" glyph-name="chevron-right" data-tags="chevron_right" d="M285.867-64c0.3-0.005 0.654-0.008 1.009-0.008 18.449 0 35.145 7.506 47.201 19.631l0.003 0.003 448.853 438.613c14.563 13.401 23.71 32.495 23.893 53.727v0.033c0.001 0.131 0.001 0.286 0.001 0.441 0 20.9-9.219 39.647-23.813 52.396l-0.082 0.070-448.853 439.467c-12.059 12.128-28.755 19.634-47.204 19.634-0.355 0-0.709-0.003-1.063-0.008l0.053 0.001c-0.254 0.003-0.554 0.005-0.855 0.005-37.467 0-67.84-30.373-67.84-67.84 0-0.152 0-0.304 0.001-0.455v0.023c0.404-19.332 8.31-36.741 20.914-49.501l-0.007 0.007 404.48-394.24-404.48-394.24c-12.779-12.636-20.744-30.119-20.906-49.463v-0.031c-0.001-0.128-0.001-0.28-0.001-0.432 0-37.467 30.373-67.84 67.84-67.84 0.301 0 0.601 0.002 0.9 0.006h-0.045z" />
<glyph unicode="&#xe904;" glyph-name="chevron-up" data-tags="chevron_up" d="M1024 221.867c0.005 0.3 0.008 0.654 0.008 1.009 0 18.449-7.506 35.145-19.631 47.201l-0.003 0.003-438.613 448.853c-13.401 14.563-32.495 23.71-53.727 23.893h-0.033c-0.131 0.001-0.286 0.001-0.441 0.001-20.9 0-39.647-9.219-52.396-23.813l-0.070-0.082-439.467-448.853c-12.128-12.059-19.634-28.755-19.634-47.204 0-0.355 0.003-0.709 0.008-1.063l-0.001 0.053c-0.003-0.254-0.005-0.554-0.005-0.855 0-37.467 30.373-67.84 67.84-67.84 0.152 0 0.304 0 0.455 0.001h-0.023c19.332 0.404 36.741 8.31 49.501 20.914l-0.007-0.007 394.24 404.48 393.813-404.48c12.636-12.779 30.119-20.744 49.463-20.906h0.031c0.255-0.003 0.557-0.005 0.859-0.005 37.467 0 67.84 30.373 67.84 67.84 0 0.302-0.002 0.603-0.006 0.904v-0.046z" />
<glyph unicode="&#xe905;" glyph-name="close" data-tags="close" d="M662.613 448l330.24 330.24c16.843 18.78 27.142 43.732 27.142 71.088 0 58.91-47.756 106.667-106.667 106.667-27.357 0-52.308-10.298-71.188-27.23l0.1 0.088-330.24-330.24-330.24 330.24c-18.78 16.843-43.732 27.142-71.088 27.142-58.91 0-106.667-47.756-106.667-106.667 0-27.357 10.298-52.308 27.23-71.188l-0.088 0.1 330.24-330.24-330.24-330.24c-19.106-19.269-30.912-45.803-30.912-75.094 0-58.828 47.623-106.533 106.42-106.666h0.013c0.193-0.001 0.421-0.002 0.649-0.002 29.129 0 55.476 11.915 74.432 31.137l330.252 330.252 330.24-330.24c18.968-19.234 45.315-31.149 74.444-31.149 0.228 0 0.456 0.001 0.684 0.002h-0.035c58.809 0.133 106.432 47.838 106.432 106.666 0 29.291-11.806 55.824-30.92 75.101l0.007-0.007z" />
<glyph unicode="&#xe906;" glyph-name="facebook" data-tags="facebook" d="M1024 445.013c-1.854 281.36-230.369 508.73-511.99 508.73-282.77 0-512-229.23-512-512 0-254.599 185.831-465.794 429.255-505.348l2.948-0.395v360.107h-130.133v148.907h130.133v113.493c0 128 76.373 200.107 193.28 200.107 41.434-1.361 80.818-5.651 119.242-12.691l-4.895 0.745v-128h-64.427c-2.789 0.371-6.015 0.583-9.289 0.583-41.002 0-74.24-33.238-74.24-74.24 0-2.459 0.12-4.89 0.353-7.288l-0.024 0.304v-96.427h141.653l-22.613-148.907h-119.467v-356.693c246.57 41.075 432.214 252.822 432.214 507.928 0 0.381 0 0.763-0.001 1.144v-0.059z" />
<glyph unicode="&#xe907;" glyph-name="havin-logo" data-tags="havin_logo" d="M159.147 448c0.001-0.127 0.001-0.277 0.001-0.427 0-44.065-35.722-79.787-79.787-79.787s-79.787 35.722-79.787 79.787c0 44.065 35.721 79.786 79.785 79.787v0c0 0 0.001 0 0.001 0 43.915 0 79.543-35.479 79.785-79.337v-0.023zM432.64 15.36c0.242-43.645 35.68-78.933 79.359-78.933 43.829 0 79.36 35.531 79.36 79.36s-35.53 79.359-79.359 79.36v0c0 0-0.001 0-0.001 0-43.829 0-79.36-35.531-79.36-79.36 0-0.15 0-0.3 0.001-0.45v0.023zM432.64 880.64c0-43.829 35.531-79.36 79.36-79.36s79.36 35.531 79.36 79.36c0 43.829-35.531 79.36-79.36 79.36v0c-43.732-0.241-79.119-35.628-79.36-79.337v-0.023zM223.573 671.573c-44.064-0.001-79.786-35.722-79.786-79.787s35.722-79.787 79.787-79.787c44.065 0 79.787 35.722 79.787 79.787 0 0.15 0 0.3-0.001 0.45v-0.023c0 0 0 0.001 0 0.001 0 43.829-35.531 79.36-79.36 79.36-0.15 0-0.3 0-0.45-0.001h0.023zM288.427 736.427c-0.001-0.126-0.001-0.276-0.001-0.426 0-44.065 35.722-79.787 79.787-79.787s79.787 35.722 79.787 79.787c0 44.065-35.722 79.787-79.787 79.787-0.15 0-0.299 0-0.449-0.001h0.023c-43.732-0.241-79.119-35.628-79.36-79.337v-0.023zM944.64 527.36c-43.829 0-79.36-35.531-79.36-79.36s35.531-79.36 79.36-79.36c43.829 0 79.36 35.531 79.36 79.36v0c-0.241 43.732-35.628 79.119-79.337 79.36h-0.023zM800.427 671.573c-0.126 0.001-0.276 0.001-0.426 0.001-44.065 0-79.787-35.722-79.787-79.787s35.722-79.787 79.787-79.787c44.065 0 79.787 35.722 79.787 79.787 0 0.15 0 0.299-0.001 0.449v-0.023c-0.241 43.732-35.628 79.119-79.337 79.36h-0.023zM576.427 736.427c-0.001-0.127-0.001-0.277-0.001-0.427 0-44.065 35.722-79.787 79.787-79.787s79.787 35.722 79.787 79.787c0 44.065-35.721 79.786-79.785 79.787v0c0 0-0.001 0-0.001 0-43.915 0-79.543-35.479-79.785-79.337v-0.023zM288.427 159.573c0.001-44.064 35.722-79.786 79.787-79.786s79.787 35.722 79.787 79.787c0 44.065-35.722 79.787-79.787 79.787-0.15 0-0.3 0-0.45-0.001h0.023c0 0-0.001 0-0.001 0-43.829 0-79.36-35.531-79.36-79.36 0-0.15 0-0.3 0.001-0.45v0.023zM576.427 159.573c0-44.065 35.722-79.787 79.787-79.787s79.787 35.722 79.787 79.787c0 44.065-35.722 79.787-79.787 79.787v0c-44.065 0-79.787-35.722-79.787-79.787v0zM800.427 383.573c-58.027 0-64.853 38.827-65.28 55.893 0.102 1.277 0.159 2.765 0.159 4.267s-0.058 2.99-0.172 4.462l0.012-0.195c0 43.829-35.531 79.36-79.36 79.36v0c-58.027 0-64.853 38.827-65.28 56.32 0.102 1.277 0.159 2.765 0.159 4.267s-0.058 2.99-0.172 4.462l0.012-0.195c0 43.829-35.531 79.36-79.36 79.36s-79.36-35.531-79.36-79.36v0c0-56.747-32.853-65.707-51.627-65.707h-13.227c-43.165-0.476-78.030-35.342-78.506-78.461v-0.045c0-56.747-32.853-65.707-51.627-65.707-1.975 0.109-4.287 0.171-6.613 0.171s-4.638-0.062-6.934-0.185l0.32 0.014c-44.065 0-79.787-35.722-79.787-79.787s35.722-79.787 79.787-79.787c44.065 0 79.787 35.722 79.787 79.787v0c0 58.027 38.827 64.853 56.32 65.28h8.107c0 0 0.001 0 0.001 0 44.065 0 79.787 35.722 79.787 79.787 0 0.15 0 0.3-0.001 0.45v-0.023c0 58.027 38.827 64.853 55.893 65.28h8.533c56.747 0 65.707-32.427 65.707-51.2 0-4.267 0-8.96 0-13.227 0-56.747-32.427-65.707-51.2-65.707h-13.227c-0.127 0.001-0.277 0.001-0.427 0.001-44.065 0-79.787-35.722-79.787-79.787s35.722-79.787 79.787-79.787c44.065 0 79.786 35.721 79.787 79.785v0c0 58.027 38.827 64.853 56.32 65.28h8.533c56.747 0 65.28-32.853 65.707-51.627-0.211-1.983-0.331-4.284-0.331-6.613s0.12-4.63 0.355-6.897l-0.024 0.284c0-44.065 35.722-79.787 79.787-79.787s79.787 35.722 79.787 79.787c0 44.065-35.722 79.787-79.787 79.787v0z" />
<glyph unicode="&#xe908;" glyph-name="instagram" data-tags="instagram" d="M512 867.84c136.533 0 152.747 0 206.933-2.987 34.309-0.538 66.935-7.064 97.099-18.574l-1.952 0.654c23.126-8.412 42.822-21.381 58.84-37.931l0.040-0.042c16.593-16.058 29.562-35.754 37.631-57.81l0.342-1.070c10.856-28.212 17.382-60.838 17.917-94.918l0.003-0.229c2.56-54.187 2.987-70.4 2.987-206.933s0-152.747-2.987-206.933c-0.538-34.309-7.064-66.935-18.574-97.099l0.654 1.952c-17.212-44.848-52.006-79.641-95.718-96.469l-1.135-0.384c-28.212-10.856-60.838-17.382-94.918-17.917l-0.229-0.003c-54.187-2.56-70.4-2.987-206.933-2.987s-152.747 0-206.933 2.987c-34.309 0.538-66.935 7.064-97.099 18.574l1.952-0.654c-23.126 8.412-42.822 21.381-58.84 37.931l-0.040 0.042c-16.593 16.058-29.562 35.754-37.631 57.81l-0.342 1.070c-10.856 28.212-17.382 60.838-17.917 94.918l-0.003 0.229c-2.56 54.187-2.987 70.4-2.987 206.933s0 152.747 2.987 206.933c0.538 34.309 7.064 66.935 18.574 97.099l-0.654-1.952c8.412 23.126 21.381 42.822 37.931 58.84l0.042 0.040c16.058 16.593 35.754 29.562 57.81 37.631l1.070 0.342c28.212 10.856 60.838 17.382 94.918 17.917l0.229 0.003c54.187 2.56 70.4 2.987 206.933 2.987zM512 960c-139.093 0-156.587 0-211.2-2.987-44.842-0.931-87.382-9.615-126.716-24.759l2.556 0.865c-69.181-26.878-122.882-80.579-149.155-147.996l-0.605-1.764c-14.278-36.777-22.962-79.318-23.887-123.766l-0.006-0.394c-2.987-54.613-2.987-72.107-2.987-211.2s0-156.587 2.987-213.333c0.931-44.842 9.615-87.382 24.759-126.716l-0.865 2.556c26.878-69.181 80.579-122.882 147.996-149.155l1.764-0.605c36.777-14.278 79.318-22.962 123.766-23.887l0.394-0.006c54.613-0.853 72.107-0.853 211.2-0.853s156.587 0 211.2 2.987c44.842 0.931 87.382 9.615 126.716 24.759l-2.556-0.865c69.181 26.878 122.882 80.579 149.155 147.996l0.605 1.764c14.039 36.113 22.701 77.884 23.883 121.522l0.011 0.505c2.987 56.747 2.987 74.24 2.987 213.333s0 156.587-2.987 211.2c-0.931 44.842-9.615 87.382-24.759 126.716l0.865-2.556c-26.878 69.181-80.579 122.882-147.996 149.155l-1.764 0.605c-36.113 14.039-77.884 22.701-121.522 23.883l-0.505 0.011c-56.747 2.987-74.24 2.987-213.333 2.987zM512 710.827c-145.155 0-262.827-117.672-262.827-262.827s117.672-262.827 262.827-262.827c145.155 0 262.827 117.672 262.827 262.827v0c0 145.155-117.672 262.827-262.827 262.827v0zM512 277.333c-94.257 0-170.667 76.41-170.667 170.667s76.41 170.667 170.667 170.667c94.257 0 170.667-76.41 170.667-170.667v0c0-94.257-76.41-170.667-170.667-170.667v0zM846.933 721.493c0-33.932-27.508-61.44-61.44-61.44s-61.44 27.508-61.44 61.44c0 33.932 27.508 61.44 61.44 61.44v0c33.932 0 61.44-27.508 61.44-61.44v0z" />
<glyph unicode="&#xe909;" glyph-name="link" data-tags="link" d="M97.28 448c0.242 87.561 71.159 158.478 158.697 158.72h204.823v97.28h-204.8c-141.385 0-256-114.615-256-256s114.615-256 256-256v0h204.8v97.28h-204.8c-87.561 0.242-158.478 71.159-158.72 158.697v0.023zM307.2 396.8h409.6v102.4h-409.6v-102.4zM768 704h-204.8v-97.28h204.8c87.659 0 158.72-71.061 158.72-158.72s-71.061-158.72-158.72-158.72h-204.8v-97.28h204.8c141.385 0 256 114.615 256 256s-114.615 256-256 256v0z" />
<glyph unicode="&#xe90a;" glyph-name="linkedin" data-tags="linkedin" d="M10.24 618.667h220.16v-661.76h-220.16zM120.32 709.547c4.421-0.601 9.53-0.944 14.72-0.944 63.673 0 115.29 51.617 115.29 115.29 0 58.483-43.546 106.796-99.983 114.283l-0.587 0.064c-4.421 0.61-9.53 0.959-14.72 0.959s-10.299-0.348-15.304-1.023l0.584 0.064c-1.72 0.092-3.734 0.145-5.76 0.145-63.232 0-114.492-51.26-114.492-114.492 0-61.206 48.027-111.195 108.452-114.335l0.28-0.012zM352-43.093h220.587v369.493c-0.233 3.064-0.366 6.635-0.366 10.238 0 15.548 2.475 30.517 7.052 44.536l-0.286-1.014c16.837 47.193 61.043 80.407 113.038 80.64h0.028c79.36 0 111.36-60.16 111.36-149.76v-354.133h220.587v379.307c0 203.093-108.8 298.667-256 298.667-2.395 0.094-5.206 0.147-8.030 0.147-81.669 0-152.912-44.642-190.657-110.854l-0.567-1.079v95.573h-217.6z" />
<glyph unicode="&#xe90b;" glyph-name="location" data-tags="location" d="M512 473.6c-70.692 0-128 57.308-128 128s57.308 128 128 128c70.692 0 128-57.308 128-128v0c0-70.692-57.308-128-128-128v0zM512 960c-197.939 0-358.4-160.461-358.4-358.4v0c0-268.8 358.4-665.6 358.4-665.6s358.4 396.8 358.4 665.6c0 197.939-160.461 358.4-358.4 358.4v0z" />
<glyph unicode="&#xe90c;" glyph-name="mail" data-tags="mail" d="M921.6 652.8l-409.6-256-409.6 256v102.4l409.6-256 409.6 256zM921.6 857.6h-819.2c-0.127 0.001-0.277 0.001-0.428 0.001-56.318 0-101.973-45.655-101.973-101.973 0-0.15 0-0.301 0.001-0.451v0.023-614.4c-0.001-0.127-0.001-0.277-0.001-0.428 0-56.318 45.655-101.973 101.973-101.973 0.15 0 0.301 0 0.451 0.001h819.177c0.127-0.001 0.277-0.001 0.428-0.001 56.318 0 101.973 45.655 101.973 101.973 0 0.15 0 0.301-0.001 0.451v-0.023 614.4c0 56.554-45.846 102.4-102.4 102.4v0z" />
<glyph unicode="&#xe90d;" glyph-name="search" data-tags="search" d="M974.507-64c-0.152-0.002-0.331-0.003-0.511-0.003-13.506 0-25.714 5.553-34.467 14.501l-0.009 0.009-202.24 202.667c-78.2-64.057-179.224-102.88-289.315-102.88-253.079 0-458.24 205.161-458.24 458.24s205.161 458.24 458.24 458.24c253.079 0 458.24-205.161 458.24-458.24 0-108.126-37.449-207.506-100.085-285.876l0.707 0.916 202.667-202.24c8.874-9.069 14.35-21.495 14.35-35.2s-5.476-26.131-14.359-35.209l0.009 0.009c-8.846-9.193-21.246-14.91-34.982-14.933h-0.004zM453.12 861.013c-0.127 0-0.277 0-0.427 0-195.818 0-354.56-158.742-354.56-354.56s158.742-354.56 354.56-354.56c195.818 0 354.56 158.742 354.56 354.56v0c0 195.668-158.499 354.317-354.11 354.56h-0.023z" />
<glyph unicode="&#xe90e;" glyph-name="setting" data-tags="setting" d="M512 268.8c-98.969 0-179.2 80.231-179.2 179.2s80.231 179.2 179.2 179.2c98.969 0 179.2-80.231 179.2-179.2v0c0-98.969-80.231-179.2-179.2-179.2v0zM892.587 396.8c2.173 15.176 3.414 32.702 3.414 50.517 0 0.24 0 0.48-0.001 0.72v-0.037c-0.097 18.148-1.334 35.908-3.644 53.329l0.231-2.129 107.947 85.333c5.782 4.652 9.451 11.727 9.451 19.66 0 4.708-1.292 9.113-3.541 12.882l0.064-0.115-102.4 177.493c-4.276 7.769-12.41 12.946-21.752 12.946-3.388 0-6.617-0.681-9.558-1.913l0.163 0.061-128-51.2c-24.632 19.585-52.743 36.469-82.937 49.432l-2.396 0.915-19.627 133.973c-2.3 12.216-12.885 21.333-25.6 21.333v0h-204.8c-12.715 0-23.3-9.118-25.575-21.171l-0.025-0.162-18.773-135.68c-32.596-13.802-60.716-30.693-86.065-50.91l0.732 0.564-128 51.2c-2.728 1.103-5.891 1.743-9.204 1.743-9.37 0-17.543-5.119-21.878-12.712l-0.065-0.124-103.253-177.493c-2.185-3.653-3.478-8.059-3.478-12.767 0-7.932 3.669-15.008 9.402-19.622l0.049-0.038 108.373-85.333c-2.121-14.578-3.506-31.705-3.834-49.090l-0.006-0.403c0.203-17.643 1.592-34.777 4.092-51.548l-0.252 2.054-108.373-85.333c-5.782-4.652-9.451-11.727-9.451-19.66 0-4.708 1.292-9.113 3.541-12.882l-0.064 0.115 102.4-177.493c4.517-7.669 12.733-12.733 22.132-12.733 3.239 0 6.338 0.602 9.19 1.699l-0.175-0.059 128 51.627c24.581-19.972 52.716-37.016 83.041-49.907l2.293-0.866 19.627-135.68c2.3-12.216 12.885-21.333 25.6-21.333h204.8c12.715 0 23.3 9.118 25.575 21.171l0.025 0.162 19.2 135.68c32.575 14.216 60.664 31.219 86.134 51.385l-0.801-0.612 128-51.627c2.728-1.103 5.891-1.743 9.204-1.743 9.37 0 17.543 5.119 21.878 12.712l0.065 0.124 102.4 177.493c2.185 3.653 3.478 8.059 3.478 12.767 0 7.932-3.669 15.008-9.402 19.622l-0.049 0.038z" />
<glyph unicode="&#xe90f;" glyph-name="twitter" data-tags="twitter" d="M1024 765.44c-35.169-15.924-75.964-27.495-118.734-32.656l-2.013-0.198c43.493 26.242 76.218 66.574 92.158 114.565l0.428 1.489c-38.458-23.019-83.19-40.628-130.804-50.308l-2.743-0.466c-38.44 40.674-92.761 65.992-152.995 65.992-116.171 0-210.347-94.175-210.347-210.347 0-16.745 1.957-33.032 5.654-48.647l-0.285 1.428c-174.975 9.078-328.897 92.14-432.228 218.252l-0.838 1.055c-17.86-30.265-28.411-66.685-28.411-105.57 0-72.514 36.693-136.458 92.524-174.277l0.74-0.473c-34.49 1.139-66.525 10.652-94.447 26.555l1.007-0.528c-0.012-0.845-0.019-1.842-0.019-2.841 0-100.765 70.854-184.982 165.458-205.546l1.388-0.253c-16.381-4.651-35.193-7.326-54.63-7.326-14.185 0-28.037 1.424-41.422 4.138l1.331-0.225c27.542-84.207 104.676-144.268 196.073-145.917l0.193-0.003c-70.756-55.23-160.952-88.556-258.932-88.556-18.368 0-36.462 1.171-54.212 3.443l2.104-0.22c90.759-59.129 201.83-94.294 321.115-94.294 0.358 0 0.716 0 1.073 0.001h-0.055c1.25-0.010 2.729-0.015 4.209-0.015 328.013 0 593.92 265.907 593.92 593.92 0 10.811-0.289 21.554-0.859 32.223l0.063-1.488c41.026 29.701 75.679 65.17 103.59 105.646l0.943 1.447z" />
<glyph unicode="&#xe910;" glyph-name="product-aid" data-tags="product-aid" d="M512 374.187v65.707c90.25 0 163.413 73.163 163.413 163.413s-73.163 163.413-163.413 163.413c-90.251 0-163.413-73.163-163.413-163.413 0-0.15 0-0.3 0.001-0.45v0.023h-65.28c0 126.304 102.389 228.693 228.693 228.693s228.693-102.389 228.693-228.693c0-126.304-102.389-228.693-228.693-228.693v0zM612.267 602.88c0 55.376-44.891 100.267-100.267 100.267s-100.267-44.891-100.267-100.267v0h65.707c0 19.087 15.473 34.56 34.56 34.56s34.56-15.473 34.56-34.56c0-19.087-15.473-34.56-34.56-34.56v0-65.28c0 0 0.001 0 0.001 0 55.226 0 100.023 44.648 100.266 99.817v0.023zM654.933 5.547c28.732 30.513 47.658 70.548 51.574 114.894l0.052 0.733c0 26.453 0 42.667 0 55.040v42.667c7.841 41.428 25.081 77.903 49.448 108.441l-0.381-0.495 11.947 18.773c9.387 14.933 20.053 29.867 32.427 47.36 42.379 57.851 67.812 130.433 67.812 208.954 0 100.087-41.321 190.522-107.835 255.178l-0.084 0.081c-64.253 62.536-152.111 101.102-248.977 101.102-192.724 0-349.792-152.663-356.871-343.656l-0.019-0.645c-0.144-3.735-0.225-8.122-0.225-12.527 0-55.871 13.16-108.668 36.55-155.461l-0.912 2.014c5.14-11.843 16.732-19.977 30.225-19.977 18.144 0 32.853 14.709 32.853 32.853 0 5.589-1.396 10.852-3.858 15.46l0.086-0.177c-17.642 36.125-27.957 78.604-27.957 123.492 0 3.986 0.081 7.953 0.242 11.9l-0.018-0.566c5.312 153.995 129.505 277.296 283.367 281.166l0.367 0.007c2.16 0.058 4.703 0.090 7.253 0.090 160.943 0 291.413-130.47 291.413-291.413 0-0.032 0-0.063 0-0.095v0.005c0-0.149 0-0.326 0-0.503 0-63.918-20.639-123.016-55.616-170.992l0.576 0.828c-13.653-18.347-24.32-34.133-34.987-50.773l-11.52-17.92c-31.554-39.683-52.972-88.746-59.593-142.393l-0.14-1.394v-99.413c-13.169-62.886-65.328-110.411-129.551-116.436l-0.583-0.044c-65.28 0-132.267 18.773-132.267 159.573 0 18.144-14.709 32.853-32.853 32.853s-32.853-14.709-32.853-32.853v0c0-186.027 107.947-225.28 197.973-225.28 57.764 1.171 109.11 27.674 143.541 68.818l0.246 0.302z" />
<glyph unicode="&#xe911;" glyph-name="product-clinic" data-tags="product-clinic" d="M442.453-64c-0.254-0.002-0.554-0.003-0.854-0.003-65.273 0-118.187 52.914-118.187 118.187 0 0.151 0 0.302 0.001 0.453v-0.023 109.653c-0.007 0.485-0.011 1.058-0.011 1.631 0 32.67 13.208 62.254 34.575 83.706l-0.004-0.004 154.027 151.040-51.627 47.36-159.147-157.013c-21.383-21.362-50.913-34.574-83.528-34.574-0.635 0-1.268 0.005-1.9 0.015l0.095-0.001h-96.853c-0.382-0.004-0.832-0.007-1.284-0.007-32.778 0-62.474 13.201-84.059 34.576l0.010-0.010c-21.611 21.294-35 50.881-35 83.596 0 0.611 0.005 1.221 0.014 1.829l-0.001-0.092v142.080c0 0.004 0 0.008 0 0.012 0 65.508 53.105 118.613 118.613 118.613 0.6 0 1.199-0.004 1.797-0.013l-0.091 0.001h191.573c0.171 0.001 0.373 0.001 0.575 0.001 31.751 0 60.578-12.521 81.812-32.894l-0.041 0.039 66.56-63.573 157.867 156.587c9.444 9.693 15.29 22.93 15.36 37.533v106.681c-0.070 14.616-5.916 27.854-15.371 37.558l0.011-0.012c-9.837 9.467-23.218 15.313-37.964 15.36h-141.236c-0.254 0.004-0.554 0.007-0.855 0.007-29.308 0-53.094-23.639-53.332-52.891v-123.756c0.136-1.122 0.213-2.421 0.213-3.738 0-18.144-14.709-32.853-32.853-32.853s-32.853 14.709-32.853 32.853c0 1.317 0.078 2.616 0.228 3.893l-0.015-0.155v123.733c0.242 65.561 53.445 118.614 119.039 118.614 0.15 0 0.3 0 0.451-0.001h141.204c0.382 0.004 0.832 0.007 1.284 0.007 32.778 0 62.474-13.201 84.059-34.576l-0.010 0.010c21.614-21.424 34.995-51.123 34.995-83.948 0-0.487-0.003-0.974-0.009-1.46l0.001 0.074v-106.667c0.005-0.412 0.008-0.899 0.008-1.386 0-32.824-13.381-62.523-34.986-83.939l-0.008-0.008-156.587-155.307 49.493-44.8 156.587 155.733c21.576 21.366 51.271 34.567 84.049 34.567 0.451 0 0.902-0.003 1.353-0.007l-0.069 0.001h106.667c65.193-0.722 117.763-53.738 117.763-119.033 0-0.302-0.001-0.605-0.003-0.906v0.046-143.787c0.012-0.622 0.019-1.355 0.019-2.090 0-32.605-13.396-62.081-34.985-83.224l-0.020-0.020c-21.424-21.614-51.123-34.995-83.948-34.995-0.487 0-0.974 0.003-1.46 0.009l0.074-0.001h-193.707c-0.146-0.001-0.319-0.001-0.493-0.001-31.642 0-60.359 12.525-81.462 32.888l0.035-0.033-69.12 68.267-154.453-153.6c-9.742-9.47-15.787-22.699-15.787-37.34 0-0.073 0-0.145 0-0.217v0.011-109.653c0-0.008 0-0.017 0-0.027 0-14.697 6.042-27.984 15.777-37.511l0.009-0.009c9.752-9.501 23.091-15.36 37.798-15.36 0.062 0 0.123 0 0.185 0h136.951c0.127-0.001 0.277-0.002 0.427-0.002 29.22 0 52.907 23.687 52.907 52.907 0 0.001 0 0.001 0 0.002v0 128c0 18.144 14.709 32.853 32.853 32.853s32.853-14.709 32.853-32.853v-128c-0.243-65.56-53.445-118.613-119.039-118.613 0 0-0.001 0-0.001 0v0zM605.013 401.493l68.267-64.853c9.624-9.228 22.706-14.916 37.117-14.933h194.563c0.081 0 0.177-0.001 0.274-0.001 14.754 0 28.098 6.039 37.693 15.781l0.006 0.007c9.49 9.496 15.36 22.611 15.36 37.098 0 0.008 0 0.016 0 0.023v-0.001 143.787c0 0 0 0.001 0 0.002 0 29.22-23.687 52.907-52.907 52.907-0.15 0-0.3-0.001-0.45-0.002h-106.644c-14.803-0.217-28.167-6.2-37.984-15.797l0.010 0.010zM119.040 571.733c-29.455 0-53.333-23.878-53.333-53.333v0-143.36c-0.017-0.509-0.027-1.107-0.027-1.707 0-29.455 23.878-53.333 53.333-53.333 0.010 0 0.019 0 0.029 0h98.132c15.424 0.030 29.269 6.764 38.781 17.441l0.045 0.052 157.867 157.013-66.133 62.293c-9.624 9.228-22.706 14.916-37.117 14.933h-0.003z" />
<glyph unicode="&#xe912;" glyph-name="product-dibsetan" data-tags="product-dibsetan" d="M532.053 555.093c0.127-0.001 0.277-0.002 0.427-0.002 33.461 0 60.587 27.126 60.587 60.587s-27.126 60.587-60.587 60.587c-33.461 0-60.586-27.125-60.587-60.585v0c-0.001-0.127-0.002-0.277-0.002-0.427 0-33.225 26.935-60.16 60.16-60.16 0.001 0 0.001 0 0.002 0v0zM541.44 610.56c-13.196 0-23.893-10.697-23.893-23.893v0-2.56c-11.703 5.703-19.624 17.509-19.624 31.166 0 19.087 15.473 34.56 34.56 34.56 18.944 0 34.328-15.242 34.557-34.131v-0.022c0-0.031 0-0.068 0-0.104 0-6.407-1.743-12.406-4.781-17.55l0.088 0.161c-4.209 7.362-11.973 12.268-20.892 12.373h-0.015zM880.213 186.88c2.418 3.295 4.82 7.060 6.98 10.978l0.274 0.542c3.185 5.83 5.057 12.771 5.057 20.149 0 4.693-0.758 9.209-2.157 13.432l0.087-0.301c-3.060 9.31-9.85 16.657-18.557 20.397l-0.217 0.083v42.667c0 0.032 0 0.069 0 0.107 0 4.489-2.166 8.472-5.511 10.961l-0.036 0.026c-0.833 0.207-1.789 0.326-2.773 0.326s-1.94-0.119-2.855-0.343l0.082 0.017c-3.75 70.435-33.522 133.268-79.791 179.631l0.004-0.004c-2.827 3.181-6.93 5.175-11.498 5.175-0.458 0-0.912-0.020-1.36-0.059l0.058 0.004 2.56 16.64c1.32 8.718 2.074 18.778 2.074 29.013s-0.754 20.295-2.21 30.126l0.135-1.113c-4.64 20.191-11.391 37.984-20.201 54.513l0.574-1.18q-5.547 12.373-12.8 24.32l12.8-3.84c6.857-2.387 12.776-5.27 18.282-8.747l-0.362 0.214 7.253-5.973 2.987-2.987c1.366-2.662 4.092-4.452 7.236-4.452 0.611 0 1.206 0.068 1.778 0.196l-0.054-0.010c8.496 2.282 14.648 9.915 14.648 18.985 0 0.828-0.051 1.644-0.151 2.444l0.010-0.096c-0.484 6.673-1.393 12.8-2.719 18.771l0.159-0.851c-2.119 11.098-4.628 20.555-7.715 29.746l0.462-1.586c-5.925 19.357-14.358 36.219-25.112 51.313l0.365-0.54c-11.853 15.206-25.978 27.973-41.992 38.006l-0.675 0.394c-7.095 4.596-15.25 8.758-23.83 12.063l-0.916 0.31c5.552 1.757 11.938 2.77 18.56 2.77s13.008-1.012 19.010-2.891l-0.45 0.121 11.093-4.267c4.001-1.647 7.367-3.363 10.578-5.31l-0.338 0.19c1.934-1.236 4.292-1.969 6.822-1.969 3.707 0 7.046 1.576 9.384 4.095l0.007 0.008c1.834 2.252 2.945 5.156 2.945 8.32s-1.111 6.068-2.964 8.344l0.019-0.024c-15.34 20.826-34.385 37.965-56.294 50.727l-0.88 0.473-9.813 5.12c0.028 1.179 0.044 2.569 0.044 3.962 0 36.844-11.172 71.079-30.314 99.501l0.404-0.636c-3.214 4.429-8.374 7.276-14.2 7.276-3.086 0-5.986-0.799-8.503-2.202l0.089 0.046c-6.573-2.616-11.134-8.924-11.134-16.297 0-0.421 0.015-0.839 0.044-1.252l-0.003 0.056c0.142-2.304 0.223-4.998 0.223-7.71 0-21.93-5.286-42.626-14.653-60.882l0.35 0.752c-16.847 3.905-36.976 6.934-57.524 8.453l-1.356 0.080c-12.373 0-24.747 0-37.12 0h-23.467v7.253c1.9 6.571 4.978 12.273 9.022 17.144l-0.062-0.077c4.2 5.484 9.299 10.040 15.117 13.519l0.243 0.135 10.667 5.12 8.533 3.84c5.129 1.747 8.753 6.522 8.753 12.144 0 0.836-0.080 1.653-0.233 2.444l0.013-0.080c-0.862 6.066-6.021 10.679-12.257 10.679-0.191 0-0.381-0.004-0.57-0.013l0.027 0.001c-22.826-0.011-44.847-3.441-65.584-9.805l1.584 0.418c-22.534-6.901-42.039-15.451-60.299-25.924l1.419 0.75c-20.146-11.027-37.453-22.616-53.637-35.551l0.731 0.564q-12.373-9.387-24.32-20.48l-7.253-6.827c-0.098 1.086-0.154 2.35-0.154 3.627s0.056 2.54 0.166 3.788l-0.011-0.162c0 5.547 0 11.093 0 17.067s2.133 11.947 2.987 17.067c0.068 0.469 0.106 1.010 0.106 1.56 0 3.456-1.522 6.557-3.933 8.669l-0.013 0.011c-1.703 1.311-3.866 2.1-6.213 2.1-3.399 0-6.411-1.656-8.273-4.205l-0.020-0.029c-4.994-6.546-9.418-13.981-12.945-21.905l-0.282-0.709c-2.976-7.187-5.223-15.541-6.347-24.247l-0.053-0.5c-0.421-3.839-0.662-8.292-0.662-12.8s0.24-8.961 0.709-13.345l-0.047 0.545v-2.987h-43.52c-12.169-1.852-22.957-4.529-33.339-8.078l1.339 0.398c-11.909-4.233-21.766-8.551-31.269-13.458l1.402 0.658c-3.656-1.744-6.137-5.411-6.137-9.657 0-0.658 0.060-1.303 0.174-1.928l-0.010 0.065c0.497-3.051 2.228-5.622 4.654-7.229l0.040-0.025c1.788-1.402 4.070-2.248 6.55-2.248 0.549 0 1.089 0.042 1.616 0.122l-0.059-0.007c6.594 1.56 14.466 2.771 22.507 3.381l0.533 0.033c3.271 0.64 7.033 1.007 10.88 1.007s7.609-0.366 11.252-1.066l-0.372 0.059c0.055 0 0.119 0.001 0.184 0.001 5.67 0 10.93-1.755 15.266-4.753l-0.090 0.059c0.093-0.449 0.147-0.965 0.147-1.493s-0.053-1.044-0.155-1.543l0.008 0.049c-11.672-1.245-22.358-4.109-32.294-8.383l0.721 0.276-19.2-10.24c-17.079 12.548-31.933 26.589-44.894 42.252l-0.333 0.414c-2.907 3.918-7.517 6.43-12.715 6.43-1.865 0-3.655-0.323-5.316-0.917l0.11 0.034c-6.262-2.034-10.71-7.817-10.71-14.639 0-0.404 0.016-0.804 0.046-1.2l-0.003 0.053c1.034-34.445 10.398-66.489 26.133-94.471l-0.533 1.031c-2.987-5.547-5.12-11.093-7.68-16.64-2.663-6.255-5.151-13.798-7.040-21.575l-0.213-1.039c-0.303-0.983-0.478-2.113-0.478-3.284 0-3.226 1.326-6.142 3.463-8.234l0.002-0.002c2.208-2.706 5.543-4.421 9.278-4.421 1.737 0 3.388 0.371 4.878 1.038l-0.076-0.030c4.605 1.861 9.949 3.216 15.519 3.817l0.267 0.023c-2.56-2.987-4.693-6.4-6.827-9.387-5.019-9.5-8.876-20.521-10.987-32.15l-0.106-0.703c-1.999-8.473-3.145-18.202-3.145-28.199 0-2.237 0.057-4.461 0.171-6.671l-0.013 0.31c-0.006-0.554-0.010-1.209-0.010-1.864 0-11.262 1.091-22.268 3.172-32.921l-0.176 1.078c1.062-2.766 3.208-4.911 5.903-5.95l0.070-0.024c-2.697-10.498-4.811-23.008-5.912-35.807l-0.061-0.887c-0.318-5.925-0.5-12.861-0.5-19.84s0.181-13.915 0.54-20.804l-0.040 0.964c0-14.507 0-27.307 0-39.68 0-5.891 4.776-10.667 10.667-10.667s10.667 4.776 10.667 10.667v0c0.33 5.758 1.244 11.151 2.688 16.324l-0.128-0.537c1.185 5.012 3.097 9.429 5.649 13.396l-0.102-0.169c1.828 2.461 3.939 4.572 6.319 6.343l0.081 0.057c-0.204-2.871-0.32-6.222-0.32-9.6s0.116-6.729 0.345-10.048l-0.025 0.448c0.21-13.42 1.909-26.339 4.939-38.736l-0.246 1.19 2.56-9.813c-2.064-0.409-3.829-1.478-5.11-2.974l-0.010-0.012-9.813-9.387-8.96-10.24c-5.361-6.204-10.553-13.022-15.313-20.153l-0.474-0.754c-9.507-13.531-18.086-28.969-24.983-45.29l-0.617-1.644c-3.213-6.953-6.269-15.32-8.672-23.958l-0.288-1.215c-2.357-7.355-4.44-16.282-5.845-25.433l-0.129-1.020c-1.629-8.050-2.561-17.303-2.561-26.773 0-0.188 0-0.375 0.001-0.562v0.029-7.68s0-4.267 0-6.4 0-9.387 0-14.080c3.507-19.705 9.896-37.321 18.791-53.353l-0.445 0.873c3.84-7.253 8.533-15.36 13.653-23.040s10.24-13.653 16.213-20.907c22.617-26.417 48.135-49.36 76.327-68.687l1.327-0.859c1.945-1.43 4.388-2.288 7.031-2.288 3.925 0 7.409 1.893 9.586 4.816l0.023 0.032c1.615 1.841 2.697 4.186 2.982 6.771l0.005 0.056c20.176-10.727 43.849-17.775 68.971-19.593l0.575-0.033h39.253c1.339-3.605 4.33-6.314 8.027-7.237l0.079-0.017 206.080-63.573c8.737-7.688 20.273-12.38 32.905-12.38 0.282 0 0.563 0.002 0.844 0.007l-0.042-0.001c14.026 0.25 26.811 5.367 36.785 13.728l-0.092-0.075 192 90.88c4.257 2.187 7.143 6.504 7.253 11.505v17.508c6.481 8.187 10.396 18.663 10.396 30.054 0 5.268-0.837 10.34-2.386 15.090l0.097-0.344c-0.374 1.796-1.118 3.376-2.153 4.72l0.020-0.027c5.74 4.174 9.873 10.254 11.482 17.296l0.038 0.198c0.909 4.294 1.429 9.228 1.429 14.284 0 12.251-3.055 23.788-8.445 33.891l0.189-0.388zM635.733-38.4c-0.133-0.003-0.29-0.004-0.447-0.004-5.101 0-9.828 1.598-13.709 4.322l0.076-0.051-5.973 211.2c3.94-1.422 8.488-2.244 13.227-2.244s9.286 0.822 13.507 2.331l-0.28-0.087 9.813-213.333c-3.571-1.521-7.725-2.404-12.085-2.404-1.456 0-2.888 0.099-4.292 0.289l0.163-0.018zM648.96 217.6v0h-2.987c-0.071-0.321-0.112-0.689-0.112-1.067s0.041-0.746 0.119-1.101l-0.006 0.034c-1.124-1.944-2.396-3.623-3.848-5.128l0.008 0.008v9.387l168.107 75.52 5.547-3.413zM426.667 30.293c12.584 5.788 23.412 12.929 32.986 21.449l-0.132-0.116c9.813 8.39 18.386 17.775 25.707 28.111l0.32 0.476c1.661 1.692 2.686 4.013 2.686 6.574 0 0.541-0.046 1.072-0.134 1.589l0.008-0.055c-0.233 7.122-6.063 12.807-13.22 12.807-0.152 0-0.304-0.003-0.455-0.008l0.022 0.001c-1.15-0.102-2.488-0.16-3.84-0.16s-2.69 0.058-4.012 0.172l0.172-0.012c2.987 2.987 6.4 5.12 8.96 8.107 4.262 3.818 7.935 8.168 10.946 12.975l0.147 0.252c0.117 0.769 0.184 1.657 0.184 2.56s-0.067 1.791-0.196 2.658l0.012-0.098c0.056 0.448 0.087 0.966 0.087 1.492 0 3.185-1.163 6.098-3.088 8.338l0.014-0.017c-2.254 2.832-5.566 4.738-9.329 5.115l-0.057 0.005c-1.853-0.158-4.009-0.248-6.187-0.248s-4.334 0.090-6.466 0.267l0.279-0.019-12.8 2.56h-7.68l12.8 17.493 11.52 16.213v2.56l10.24 14.507c0.494 1.399 0.78 3.013 0.78 4.693s-0.286 3.294-0.811 4.795l0.031-0.102c-0.977 6.425-6.462 11.291-13.084 11.291-0.804 0-1.592-0.072-2.356-0.209l0.080 0.012c-3.907-0.509-8.426-0.8-13.013-0.8s-9.106 0.291-13.54 0.855l0.527-0.055c-8.211 0.366-15.806 2.696-22.423 6.526l0.236-0.126-3.413 2.56v43.52l180.48-76.8 7.68-213.333-170.667 51.2zM456.533 277.333h11.093l146.773-65.28v-7.68l-2.56 2.56v2.133h-2.133zM866.133 222.72c0.287-1.272 0.452-2.733 0.452-4.232 0-3.62-0.959-7.015-2.637-9.946l0.052 0.098c-4.097-8.404-11.384-14.717-20.244-17.431l-0.236-0.062h-4.693c10.892 9.171 19.995 20.042 26.998 32.269l0.308 0.584zM846.080 273.067v-32.427c-6.792-13.72-16.311-25.15-27.925-33.962l-0.235-0.171h-2.987c-6.827-3.84-16.64-9.387-17.493-20.053-0.008-0.2-0.013-0.435-0.013-0.671 0-5.937 3.031-11.165 7.63-14.223l0.063-0.039c5.823-4.064 13.049-6.494 20.842-6.494 0.924 0 1.839 0.034 2.745 0.101l-0.121-0.007h11.093c-11.093-8.107-24.747-16.64-34.987-22.613-3.621-1.916-6.112-5.544-6.398-9.777l-0.002-0.037c-0.030-0.34-0.047-0.735-0.047-1.134 0-3.924 1.656-7.462 4.307-9.953l0.007-0.007c8.965-7.35 20.262-12.166 32.634-13.212l0.219-0.015c-6.365-3.946-13.701-7.412-21.431-10.019l-0.755-0.221c-5.33-0.65-9.577-4.608-10.653-9.733l-0.014-0.081c-0.194-0.849-0.305-1.824-0.305-2.825 0-4.733 2.486-8.885 6.223-11.222l0.056-0.032c10.793-6.508 23.459-11.163 36.991-13.159l0.555-0.067-170.667-79.787-9.813 215.893zM849.92 86.187l4.267 2.133s0 0 0 0zM839.68 133.12c9.784 6.013 18.137 11.922 26.095 18.304l-0.495-0.384c0.185-1.409 0.291-3.039 0.291-4.693s-0.106-3.284-0.311-4.883l0.020 0.189c0-2.133-2.987-5.12-9.387-7.253-2.767-0.639-5.945-1.006-9.209-1.006-2.474 0-4.899 0.211-7.258 0.615l0.253-0.036zM830.293 303.787l-17.493 10.667c-1.53 0.898-3.37 1.429-5.333 1.429s-3.803-0.531-5.384-1.456l0.050 0.027-176.64-79.787-151.467 66.987c-0.958 0.299-2.059 0.472-3.2 0.472s-2.242-0.172-3.279-0.492l0.079 0.021-51.2-8.107-11.52 5.12c-1.806 0.903-3.935 1.432-6.187 1.432s-4.381-0.529-6.268-1.469l0.082 0.037c-3.348-2.409-5.512-6.281-5.547-10.661v-14.513l-12.373-11.52-8.107-6.827-3.84-2.987-2.987-2.133c-3.784-2.371-6.262-6.519-6.262-11.245 0-2.288 0.581-4.441 1.604-6.318l-0.035 0.069c1.731-2.955 4.394-5.204 7.579-6.368l0.101-0.032c1.453-0.597 3.139-0.944 4.907-0.944s3.454 0.347 4.995 0.976l-0.088-0.032 5.973 3.84 5.547 4.693c0.857-5.922 2.81-11.249 5.654-15.979l-0.107 0.193c3.232-6.417 8.036-11.631 13.919-15.267l0.161-0.093c9.7-6.247 21.373-10.269 33.92-11.082l0.213-0.011h4.267l-7.253-9.813-25.6-33.28v-2.987c-0.558-1.433-0.881-3.091-0.881-4.825 0-5.706 3.5-10.594 8.47-12.635l0.091-0.033 28.16-8.96h2.56l-8.96-6.4-11.947-6.827c-2.722-1.514-4.814-3.883-5.942-6.737l-0.031-0.090c-0.487-1.368-0.769-2.945-0.769-4.589 0-5.739 3.434-10.676 8.359-12.869l0.090-0.036 10.667-3.413 8.96-2.56-6.4-5.973c-7.765-6.779-16.61-12.622-26.18-17.192l-0.7-0.301c-8.803-4.342-19.025-7.494-29.795-8.907l-0.498-0.053h-34.133c-23.365 1.196-45.063 7.21-64.488 17.061l0.914-0.421c-9.908 5.534-18.454 11.904-26.065 19.237l0.039-0.037c-3.669 3.72-7.034 7.763-10.041 12.072l-0.199 0.301c-3.018 4.18-5.607 8.969-7.539 14.081l-0.141 0.426c-1.427 3.77-5.007 6.402-9.201 6.402-0.065 0-0.13-0.001-0.195-0.002h-3.403c-2.626-0.871-4.732-2.7-5.946-5.062l-0.027-0.058c-0.506-1.198-0.8-2.591-0.8-4.053s0.294-2.855 0.826-4.124l-0.026 0.070v-2.987c-6.54 6.802-12.823 14.033-18.734 21.57l-0.466 0.617c-5.12 6.827-9.387 13.227-13.653 19.627s-8.107 13.653-11.52 20.053c-6.528 12.349-11.441 26.688-13.965 41.835l-0.115 0.832c-0.2 1.665-0.315 3.592-0.315 5.547s0.114 3.882 0.336 5.777l-0.022-0.23v11.093c-0.311 3.387-0.489 7.326-0.489 11.307s0.178 7.919 0.525 11.809l-0.036-0.502c3.284 16.657 8.003 31.37 14.186 45.29l-0.533-1.343c6.801 16.63 13.953 30.659 22.098 44.016l-0.765-1.35 12.8 19.627 7.68 10.24 4.267 5.12c3.559-6.343 7.23-11.783 11.291-16.898l-0.198 0.258c4.179-5.445 8.806-10.206 13.926-14.385l0.154-0.122c1.831-1.736 4.311-2.804 7.040-2.804s5.209 1.068 7.045 2.808l-0.005-0.004c1.612 1.62 2.609 3.854 2.609 6.32 0 0.329-0.018 0.653-0.052 0.973l0.003-0.040c-0.538 2.863-1.905 5.344-3.839 7.252l-0.001 0.001c-3.771 3.323-7.019 7.113-9.687 11.307l-0.127 0.213c-2.923 4.063-5.628 8.684-7.887 13.553l-0.219 0.527c-4.631 8.243-8.311 17.794-10.538 27.891l-0.129 0.696c-1.908 9.383-3 20.168-3 31.208 0 0.728 0.005 1.456 0.014 2.182l-0.001-0.11c0.203 12.062 1.281 23.709 3.175 35.079l-0.189-1.372c0.040 0.375 0.063 0.811 0.063 1.252 0 3.121-1.156 5.972-3.062 8.149l0.012-0.014c-2.226 2.488-5.39 4.096-8.931 4.266l-0.029 0.001h-13.227c-4.24-1.403-7.909-3.136-11.317-5.249l0.224 0.129c-2.289-1.034-4.259-2.321-5.998-3.861l0.025 0.021c0 8.107 0 15.36 0 22.613 1.302 13.284 3.862 25.449 7.599 37.087l-0.346-1.247c1.978 5.743 4.284 10.675 7.035 15.312l-0.208-0.379c2.108 4.062 5.152 7.38 8.859 9.753l0.101 0.060c3.335 1.746 5.646 5.050 5.971 8.919l0.003 0.041c0.505 1.322 0.797 2.85 0.797 4.447 0 5.677-3.696 10.491-8.814 12.167l-0.091 0.026h-10.24l-7.253-2.56c-3.069-2.126-5.73-4.516-8.062-7.201l-0.045-0.052v4.267c0 0.081 0 0.176 0 0.272 0 9.903 1.245 19.515 3.587 28.689l-0.173-0.801c2.549 9.579 6.503 17.97 11.693 25.437l-0.173-0.264c5.222 7.637 11.44 14.126 18.563 19.476l0.21 0.151s0 0 2.56 2.133c1.726 2.162 2.77 4.935 2.77 7.952 0 4.265-2.086 8.043-5.293 10.369l-0.037 0.026-3.84 2.56-4.267 1.707c-2.221 1.157-4.798 2.047-7.514 2.535l-0.166 0.025c-2.179 0.31-4.695 0.488-7.253 0.488s-5.074-0.177-7.538-0.52l0.285 0.032h-3.413q3.84 8.96 7.68 16.64c6.497 12.271 14.312 22.808 23.471 32.004l-0.004-0.004c8.612 9.097 18.967 16.445 30.544 21.524l0.603 0.236c10.952 4.589 23.68 7.255 37.030 7.255 0.182 0 0.363 0 0.545-0.001h-0.028c6.332 0.837 11.168 6.202 11.168 12.696 0 0.488-0.027 0.969-0.080 1.443l0.005-0.058c0.112 0.705 0.175 1.519 0.175 2.347s-0.064 1.641-0.187 2.435l0.011-0.088c0.11 0.641 0.173 1.38 0.173 2.133s-0.063 1.492-0.184 2.211l0.011-0.078c0.117 1.215 0.184 2.626 0.184 4.053s-0.067 2.839-0.197 4.232l0.013-0.178c-2.34 5.764-5.508 10.713-9.419 14.969l0.032-0.035c-3.22 3.259-6.864 6.089-10.846 8.401l-0.247 0.132c2.498 0.322 5.388 0.506 8.32 0.506s5.822-0.184 8.658-0.54l-0.338 0.035c9.331-1.888 17.619-5.142 25.116-9.589l-0.369 0.203c1.764-1.084 3.9-1.727 6.187-1.727s4.423 0.642 6.239 1.756l-0.052-0.030c4.241 2.144 7.098 6.468 7.098 11.46 0 0.928-0.099 1.833-0.286 2.704l0.015-0.084v3.413h2.56c3.125 0.374 5.824 1.949 7.662 4.244l0.018 0.023c5.547 6.4 12.373 12.8 20.48 20.48s14.933 13.227 22.613 19.2c14.464 11.625 30.654 22.505 47.741 31.963l1.753 0.89c15.294 9.15 32.956 17.116 51.55 22.981l1.783 0.485h5.547c-5.783-7.472-10.2-16.323-12.689-25.95l-0.111-0.504c-0.937-4.425-1.474-9.51-1.474-14.72s0.537-10.295 1.558-15.202l-0.084 0.482c1.229-6.382 6.769-11.137 13.419-11.137 0.383 0 0.762 0.016 1.136 0.047l-0.049-0.003c10.24 0 21.76 0 34.56 0h34.987c24.309-0.268 47.889-2.585 70.81-6.787l-2.543 0.387c23.896-5.658 44.956-14.169 64.278-25.35l-1.131 0.604c4.722-2.348 8.778-4.903 12.548-7.809l-0.174 0.129h-3.413c-2.37 0.303-5.111 0.476-7.893 0.476s-5.524-0.173-8.215-0.509l0.321 0.033c-5.937-1.1-11.228-2.876-16.155-5.282l0.368 0.162c-10.274-4.689-18.857-11.495-25.49-19.909l-0.11-0.144c-1.669-2.141-2.676-4.869-2.676-7.832 0-1.315 0.198-2.584 0.567-3.778l-0.024 0.091c1.339-4.73 5.3-8.262 10.174-8.952l0.066-0.008 11.093-3.84 8.533-6.4c7.253-3.413 14.933-7.253 22.187-11.52 14.419-8.357 26.588-18.894 36.494-31.315l0.199-0.258c10.119-12.185 18.476-26.306 24.397-41.638l0.349-1.029c1.87-3.291 3.871-7.357 5.656-11.538l0.317-0.835-12.8 5.12c-14.545 5.152-31.335 8.388-48.8 8.953l-0.267 0.007c-3.58-0.029-6.855-1.313-9.411-3.433l0.025 0.020c-2.325-2.335-3.883-5.437-4.261-8.893l-0.006-0.067c-0.009-0.175-0.014-0.379-0.014-0.584 0-3.263 1.308-6.221 3.429-8.377l-0.002 0.002 7.253-10.24c2.56-3.413 4.693-7.253 6.827-10.667 3.97-6.216 8.091-13.625 11.79-21.276l0.583-1.337c6.424-14.073 11.736-30.503 15.122-47.625l0.238-1.442c2.206-11.202 3.469-24.082 3.469-37.257 0-4.906-0.175-9.771-0.519-14.59l0.037 0.647c-1.927-18.876-5.538-36.105-10.743-52.626l0.503 1.853c-0.419-1.077-0.662-2.323-0.662-3.627 0-5.668 4.595-10.262 10.262-10.262 4.364 0 8.092 2.724 9.576 6.565l0.024 0.070 5.12 13.653c41.161-42.29 67.67-99.023 71.223-161.894l0.030-0.666zM200.533 749.227c-5.026-5.029-9.648-10.463-13.812-16.249l-0.268-0.391c-4.409 10.474-8.104 22.78-10.489 35.547l-0.178 1.146c8.533-7.68 17.493-14.507 24.747-20.053zM656.213 869.973c6.103 12.39 10.595 26.771 12.714 41.913l0.086 0.753c4.709-14.408 8.181-31.226 9.748-48.593l0.066-0.9c-7.253 2.133-14.507 4.267-22.613 6.827zM705.707 622.933c1.214-1.352 1.956-3.15 1.956-5.12s-0.742-3.768-1.962-5.127l0.006 0.007-26.453-26.88c-12.373-124.16-64.853-141.227-66.987-141.653-1.090-0.69-2.417-1.1-3.84-1.1s-2.75 0.41-3.87 1.117l0.030-0.018-10.24 9.813v-13.653c-0.464-2.265-1.69-4.187-3.393-5.532l-0.020-0.015c-35.973-21.982-78.472-37.135-123.963-42.524l-1.477-0.142c-0.1-0.004-0.218-0.007-0.336-0.007-2.593 0-4.916 1.156-6.481 2.982l-0.010 0.011-11.093 14.933-6.827-13.653c-1.397-2.56-4.069-4.267-7.14-4.267-0.040 0-0.080 0-0.119 0.001h0.006c-50.234 10.342-92.684 38.17-121.654 76.708l-0.373 0.518c-10.345 14.253-25.037 24.795-42.109 29.729l-0.557 0.138c-3.558 0.717-6.2 3.818-6.2 7.536 0 0.657 0.083 1.295 0.238 1.904l-0.011-0.053c0.753 3.514 3.832 6.11 7.518 6.11 0.51 0 1.009-0.050 1.491-0.145l-0.049 0.008c32.551-7.917 69.922-12.458 108.354-12.458 3.157 0 6.308 0.031 9.451 0.092l-0.471-0.007c0.211 0.020 0.456 0.031 0.704 0.031 3.729 0 6.871-2.518 7.816-5.947l0.013-0.057v-6.827l3.84 8.107c1.051 2.794 3.7 4.746 6.806 4.746 0.308 0 0.611-0.019 0.909-0.056l-0.036 0.004c25.528 0.803 49.798 4.801 72.864 11.609l-2.037-0.516c1.118 0.575 2.44 0.913 3.84 0.913s2.722-0.337 3.888-0.935l-0.048 0.022 11.093-10.24 2.133 10.667c0.476 3.186 2.853 5.707 5.922 6.39l0.051 0.010c30.877 4.71 57.84 18.817 78.52 39.266l-0.013-0.013c1.384 1.134 3.172 1.821 5.12 1.821s3.736-0.687 5.134-1.833l-0.014 0.011 11.947-6.827v17.493c1.267 3.51 4.57 5.974 8.448 5.974 0.030 0 0.060 0 0.090 0h-0.005c17.493 8.96 78.507 47.787 78.933 47.787 1.335 1.005 3.021 1.609 4.848 1.609 2.282 0 4.344-0.943 5.817-2.46l0.002-0.002zM407.040 523.093c28.239 0.949 50.771 24.069 50.771 52.452 0 28.984-23.496 52.48-52.48 52.48-28.824 0-52.221-23.238-52.478-52.001v-0.024c0 0 0-0.001 0-0.002 0-29.070 23.445-52.663 52.457-52.905h0.023zM407.040 602.027c14.61 0 26.453-11.844 26.453-26.453v0c0.112-0.705 0.175-1.519 0.175-2.347s-0.064-1.641-0.187-2.435l0.011 0.088c-4.427 4.935-10.804 8.044-17.909 8.107h-0.011c-13.196 0-23.893-10.697-23.893-23.893v0c-7.111 4.546-11.966 12.084-12.791 20.795l-0.009 0.111c0.24 14.425 11.99 26.027 26.45 26.027 0.001 0 0.002 0 0.004 0v0z" />
<glyph unicode="&#xe913;" glyph-name="product-straudio" data-tags="product-straudio" d="M667.733 795.307v-145.493l-42.667 25.173v120.32c0 0.001 0 0.002 0 0.004 0 13.196-10.697 23.893-23.893 23.893-0.15 0-0.3-0.001-0.449-0.004h-170.645c-13.196 0-23.893-10.697-23.893-23.893v0-55.040l315.733-182.187v228.693c0 0.005 0 0.011 0 0.018 0 70.692-57.308 128-128 128-0.75 0-1.499-0.006-2.246-0.019l0.112 0.002h-159.147c-0.635 0.011-1.383 0.018-2.133 0.018-70.692 0-128-57.308-128-128 0-0.006 0-0.012 0-0.019v0.001-98.133l462.507-261.973v-123.307c-0.242-95.809-77.845-173.411-173.63-173.653h-158.743c-95.809 0.242-173.411 77.845-173.653 173.63v303.383l402.773-232.107v-79.787c0 0 0-0.001 0-0.001 0-37.317-30.13-67.597-67.39-67.839h-170.69c-37.467 0-67.84 30.373-67.84 67.84v0 145.067l42.667-24.747v-120.32c-0.002-0.128-0.004-0.279-0.004-0.431 0-13.196 10.697-23.893 23.893-23.893 0.151 0 0.302 0.001 0.453 0.004h170.644c0.001 0 0.002 0 0.004 0 13.196 0 23.893 10.697 23.893 23.893 0 0.15-0.001 0.3-0.004 0.449v-0.022 54.613l-314.88 183.893v-228.267c0.242-71.773 58.36-129.892 130.11-130.133h158.743c71.773 0.242 129.892 58.36 130.133 130.11v98.156l-462.507 258.133v125.44c0.243 95.722 77.897 173.227 173.653 173.227 0 0 0 0 0.001 0h158.72c0 0 0 0 0.001 0 95.756 0 173.41-77.504 173.653-173.203v-303.81l-402.773 232.107v80.213c0 37.231 30.182 67.413 67.413 67.413v0h170.667c37.134-0.24 67.173-30.279 67.413-67.39v-0.023zM765.013-53.76v22.613c0 5.655-4.585 10.24-10.24 10.24v0h-485.547c-5.655 0-10.24-4.585-10.24-10.24v0-22.613c0-5.655 4.585-10.24 10.24-10.24v0h485.547c5.655 0 10.24 4.585 10.24 10.24v0zM597.333 43.093v20.907c0 5.655-4.585 10.24-10.24 10.24v0h-151.893c-4.875-0.846-8.534-5.044-8.534-10.097 0-0.050 0-0.101 0.001-0.151v0.008-22.613c0-5.655 4.585-10.24 10.24-10.24v0h153.6c4.138 1.378 7.068 5.215 7.068 9.736 0 0.783-0.088 1.546-0.255 2.279l0.013-0.069z" />
<glyph unicode="&#xe914;" glyph-name="collapse" data-tags="collapse" d="M943.787 528.213h-863.573c-44.301 0-80.213-35.913-80.213-80.213s35.913-80.213 80.213-80.213v0h863.573c44.301 0 80.213 35.913 80.213 80.213s-35.913 80.213-80.213 80.213v0z" />
<glyph unicode="&#xe915;" glyph-name="expand" data-tags="expand" d="M592.213 367.787h351.573c44.301 0 80.213 35.913 80.213 80.213s-35.913 80.213-80.213 80.213v0h-351.573v351.573c0 44.301-35.913 80.213-80.213 80.213s-80.213-35.913-80.213-80.213v0-351.573h-351.573c-44.301 0-80.213-35.913-80.213-80.213s35.913-80.213 80.213-80.213v0h351.573v-351.573c0-44.301 35.913-80.213 80.213-80.213s80.213 35.913 80.213 80.213v0z" />
<glyph unicode="&#xe916;" glyph-name="hamburger-menu" data-tags="hamburger-menu" d="M695.467 630.187h-634.88c-33.461 0-60.587 27.126-60.587 60.587s27.126 60.587 60.587 60.587v0h634.88c33.461 0 60.587-27.126 60.587-60.587s-27.126-60.587-60.587-60.587v0zM1024 448c0 33.461-27.126 60.587-60.587 60.587v0h-902.827c-33.461 0-60.587-27.126-60.587-60.587s27.126-60.587 60.587-60.587v0h902.827c33.461 0 60.587 27.126 60.587 60.587v0zM1024 205.227c-0.24 33.364-27.223 60.347-60.564 60.587h-637.463c-33.461 0-60.587-27.126-60.587-60.587s27.126-60.587 60.587-60.587v0h637.44c33.461 0 60.587 27.126 60.587 60.587v0z" />
<glyph unicode="&#xe917;" glyph-name="menu" data-tags="menu" d="M355.413 486.4h-237.227c-65.273 0-118.187 52.914-118.187 118.187v0 237.227c0 65.273 52.914 118.187 118.187 118.187v0h237.227c65.273 0 118.187-52.914 118.187-118.187v0-237.227c0-65.273-52.914-118.187-118.187-118.187v0zM123.733 610.133h226.133v226.133h-226.133zM905.813 486.4h-237.227c-65.273 0-118.187 52.914-118.187 118.187v0 237.227c0 65.273 52.914 118.187 118.187 118.187v0h237.227c65.273 0 118.187-52.914 118.187-118.187v0-237.227c0-65.273-52.914-118.187-118.187-118.187v0zM674.133 610.133h226.133v226.133h-226.133zM355.413-64h-237.227c-65.273 0-118.187 52.914-118.187 118.187v0 237.227c0 65.273 52.914 118.187 118.187 118.187v0h237.227c65.273 0 118.187-52.914 118.187-118.187v0-237.227c0-65.273-52.914-118.187-118.187-118.187v0zM123.733 59.733h226.133v226.133h-226.133zM905.813-64h-237.227c-65.273 0-118.187 52.914-118.187 118.187v0 237.227c0 65.273 52.914 118.187 118.187 118.187v0h237.227c65.273 0 118.187-52.914 118.187-118.187v0-237.227c0-65.273-52.914-118.187-118.187-118.187v0zM674.133 59.733h226.133v226.133h-226.133z" />
</font>
</defs>
</svg>
